[26/4/2017]橄榄树乐队演奏专辑《新国风音乐 在那遥远的地方》(WAV/百度) 激动社区,陪你一起慢慢变老! - 激动社区 - Powered by Discuz!NT

激动社区爱乐之城 · 聆听一辑民乐国粹民乐国粹-原创精品区(VIP) [26/4/2017]橄榄树乐队演奏专辑《新国风音乐 在那遥远的地方》(WAV/百度)

【版块说明】 本版块为付费版块,需付费成为音乐精灵,回复后才能看见下载链接。音乐精灵详情请查看 论坛置顶帖>>   
1  /  5  页   12345 跳转 查看:3476

[原创] [26/4/2017]橄榄树乐队演奏专辑《新国风音乐 在那遥远的地方》(WAV/百度)

[26/4/2017]橄榄树乐队演奏专辑《新国风音乐 在那遥远的地方》(WAV/百度)















新国风音乐 在那遥远的地方
橄榄树乐队演奏
中国日报社 北京南海音像出品
2005年













专辑曲目


01.掀起你的盖头来
02.牧歌
03.延边人民热爱毛主席
04.小河淌水
05.半个月亮爬上来
06.在银色的月光下
07.赶牲灵
08.美丽的草原我的家
09.渔舟唱晚
10.人说山西好风光
11.三十里铺
12.乌苏里船歌
13.浏阳河
14.森吉德玛
15.在那遥远的地方






试听曲  02+09
下载链接需登陆后回复可见

       



专辑百度盘下载


(WAV+CUE)

================================================

& 下载链接需登录后回复可见 &
& 注:聆听一辑分区需音乐精灵登陆后回复可见 &

================================================


相关专辑链接


橄榄树乐队《新国风音乐-月亮代表我的心》


橄榄树乐队 《新国风音乐-茉莉花》






本帖被评分 1 次
本论坛音频仅供网友试听之用 勿作商用 专辑版权归唱片公司所有


音乐无限    我爱音乐    感谢音乐
 

论坛音乐精灵获取方式
                               
 

回复:[26/4/2017]橄榄树乐队演奏专辑《新国风音乐 在那遥远的地方》(WAV/百度)

xact Audio Copy V1.0 beta 3 from 29. August 2011

EAC 抓取日志文件从26. 四月 2017, 10:42

橄榄树乐队 / 在那遥远的地方

使用驱动器  :PIONEER DVD-ROM DVD-232  Adapter: 3  ID: 0

读取模式 : 快速

读取偏移校正:              : 6
读取 Lead-In 和 Lead-Out : 否
用静音填充抓取中丢失偏移的采样      : 否
去除首尾静音块              : 否
在CRC 计算中使用了空样本      : 是
已用接口                  : Win NT 及 2000 本地 Win32 接口

所用输出模式: : 内部 WAV 函数
样本格式    : 44.100 Hz; 16 Bit; 立体声


已抓取 CD 的 TOC

    音轨 |    起始    |    长度    |  起始扇区  |  结束扇区 
    --------------------------------------------
      1 |  0:00.00 |  4:01.25 |      0 |  18099
      2 |  4:01.25 |  4:56.00 |  18100 |  40299
      3 |  8:57.25 |  4:03.05 |  40300 |  58529
      4 | 13:00.30 |  4:54.50 |  58530 |  80629
      5 | 17:55.05 |  4:34.57 |  80630 | 101236
      6 | 22:29.62 |  5:04.15 | 101237 | 124051
      7 | 27:34.02 |  3:26.53 | 124052 | 139554
      8 | 31:00.55 |  4:52.17 | 139555 | 161471
      9 | 35:52.72 |  4:56.60 | 161472 | 183731
    10 | 40:49.57 |  4:44.00 | 183732 | 205031
    11 | 45:33.57 |  4:33.48 | 205032 | 225554
    12 | 50:07.30 |  4:00.55 | 225555 | 243609
    13 | 54:08.10 |  4:34.07 | 243610 | 264166
    14 | 58:42.17 |  4:31.43 | 264167 | 284534
    15 | 63:13.60 |  4:23.57 | 284535 | 304316


范围状态及错误

已选择范围

    文件名 H:\My Music\新国风音乐 茉莉花\橄榄树乐队 - 在那遥远的地方.wav

    可疑位置 1:03:34
    可疑位置 1:03:36 - 1:03:37
    可疑位置 1:03:48
    可疑位置 1:03:59 - 1:04:00
    可疑位置 1:04:11
    可疑位置 1:04:24 - 1:04:25
    可疑位置 1:04:39 - 1:04:40
    可疑位置 1:05:09 - 1:05:10
    可疑位置 1:05:28
    可疑位置 1:05:30
    可疑位置 1:05:51 - 1:05:53
    可疑位置 1:06:17 - 1:06:22
    可疑位置 1:07:03 - 1:07:11
    可疑位置 1:07:15
    可疑位置 1:07:17

    峰值电平 99.6 %
    抓取速度 2.2 X
    复制 CRC 60177A88
    复制结束

出现错误

状态报告结尾
本论坛音频仅供网友试听之用 勿作商用 专辑版权归唱片公司所有


音乐无限    我爱音乐    感谢音乐
 

论坛音乐精灵获取方式
                               
 

回复 1F e213 的帖子

感谢分享
 

回复:[26/4/2017]橄榄树乐队演奏专辑《新国风音乐 在那遥远的地方》(WAV/百度)

谢谢分享,橄榄树乐队《新国风音乐 在那遥远的地方》
美好的音乐我喜欢
 

回复:[26/4/2017]橄榄树乐队演奏专辑《新国风音乐 在那遥远的地方》(WAV/百度)

就缺少这一张的无损了,谢谢分享
 

回复:[26/4/2017]橄榄树乐队演奏专辑《新国风音乐 在那遥远的地方》(WAV/百度)

熟悉的旋律,谢谢分享
 

回复:[26/4/2017]橄榄树乐队演奏专辑《新国风音乐 在那遥远的地方》(WAV/百度)

新国风音乐 在那遥远的地方
 

回复:[26/4/2017]橄榄树乐队演奏专辑《新国风音乐 在那遥远的地方》(WAV/百度)

赏心悦耳.    下来欣赏.
 

回复:[26/4/2017]橄榄树乐队演奏专辑《新国风音乐 在那遥远的地方》(WAV/百度)

收藏了谢谢
 

回复: [26/4/2017]橄榄树乐队演奏专辑《新国风音乐 在那遥远的地方》(WAV/百度)

谢谢楼主提供
 
1  /  5  页   12345 跳转

Copyright @ 2004-2021 www.52jdyy.com  激动社区 - 陪你一起慢慢变老!

皖公网安备 34182502000053号  皖ICP备19010502号