[14/4/2017]【贺五月激动社区十周年】 橄榄树乐队专辑《新国风音乐 茉莉花》(WAV 百度) 激动社区,陪你一起慢慢变老! - 激动社区 - Powered by Discuz!NT

激动社区爱乐之城 · 聆听一辑民乐国粹民乐国粹-原创精品区(VIP) [14/4/2017]【贺五月激动社区十周年】 橄榄树乐队专辑《新国风音乐 茉莉花》(WAV 百度)

【版块说明】 本版块为付费版块,需付费成为音乐精灵,回复后才能看见下载链接。音乐精灵详情请查看 论坛置顶帖>>   
1  /  5  页   12345 跳转 查看:3778

[原创] [14/4/2017]【贺五月激动社区十周年】 橄榄树乐队专辑《新国风音乐 茉莉花》(WAV 百度)

[14/4/2017]【贺五月激动社区十周年】 橄榄树乐队专辑《新国风音乐 茉莉花》(WAV 百度)


















新国风音乐 茉莉花
橄榄树乐队演奏
中国日报社 北京南海音像出品
2005年














专辑曲目


01.阿佤人民唱新歌
02.走西口
03.兰花花
04.北京的金山上
05.沂蒙山小调
06.阿拉木汗
07.敖包相会
08.绣荷包
09.谁不说俺家乡好
10.阿里山的姑娘
11.康定情歌
12.草原之夜
13.洪湖水浪打浪
14.阿诗玛
15.茉莉花




试听曲 01+02+05
下载链接需登陆后回复可见

       


专辑百度盘下载


(WAV+CUE)

================================================

& 下载链接需登录后回复可见 &
& 注:聆听一辑分区需音乐精灵登陆后回复可见 &

================================================

相关专辑链接

橄榄树乐队《月亮代表我的心》



本帖被评分 1 次
最后编辑e213 最后编辑于 2017-04-14 20:51:12
本论坛音频仅供网友试听之用 勿作商用 专辑版权归唱片公司所有


音乐无限    我爱音乐    感谢音乐
 

论坛音乐精灵获取方式
                               
 

回复:[14/4/2017]【贺五月激社区十周年】 橄榄树乐队专辑《新国风音乐 茉莉花》(WAV 百度)

Exact Audio Copy V1.0 beta 3 from 29. August 2011

EAC 抓取日志文件从14. 四月 2017, 9:53

橄榄树乐队 / 新国风音乐 茉莉花

使用驱动器  :PIONEER DVD-ROM DVD-232  Adapter: 3  ID: 0

读取模式 : 快速

读取偏移校正:              : 6
读取 Lead-In 和 Lead-Out : 否
用静音填充抓取中丢失偏移的采样      : 否
去除首尾静音块              : 否
在CRC 计算中使用了空样本      : 是
已用接口                  : Win NT 及 2000 本地 Win32 接口

所用输出模式: : 内部 WAV 函数
样本格式    : 44.100 Hz; 16 Bit; 立体声


已抓取 CD 的 TOC

    音轨 |    起始    |    长度    |  起始扇区  |  结束扇区 
    --------------------------------------------
      1 |  0:00.00 |  3:25.55 |      0 |  15429
      2 |  3:25.55 |  4:10.70 |  15430 |  34249
      3 |  7:36.50 |  4:28.72 |  34250 |  54421
      4 | 12:05.47 |  4:03.60 |  54422 |  72706
      5 | 16:09.32 |  5:02.38 |  72707 |  95394
      6 | 21:11.70 |  4:25.12 |  95395 | 115281
      7 | 25:37.07 |  4:40.03 | 115282 | 136284
      8 | 30:17.10 |  4:38.40 | 136285 | 157174
      9 | 34:55.50 |  4:35.72 | 157175 | 177871
    10 | 39:31.47 |  4:46.03 | 177872 | 199324
    11 | 44:17.50 |  6:04.40 | 199325 | 226664
    12 | 50:22.15 |  4:49.62 | 226665 | 248401
    13 | 55:12.02 |  4:19.13 | 248402 | 267839
    14 | 59:31.15 |  4:37.62 | 267840 | 288676
    15 | 64:09.02 |  4:53.35 | 288677 | 310686


范围状态及错误

已选择范围

    文件名 H:\My Music\新国风音乐 茉莉花\橄榄树乐队 - 新国风音乐 茉莉花.wav

    峰值电平 94.4 %
    抓取速度 2.2 X
    复制 CRC 6876D1B0
    复制成功

没有错误发生

状态报告结尾
本论坛音频仅供网友试听之用 勿作商用 专辑版权归唱片公司所有


音乐无限    我爱音乐    感谢音乐
 

论坛音乐精灵获取方式
                               
 

回复:[14/4/2017]【贺五月激动社区十周年】 橄榄树乐队专辑《新国风音乐 茉莉花》(WAV 百度)...



看来沙发是大家留给我来坐的
小屹也来贺~   谢谢小屹~~

新国风音乐 倒有点爵士的感觉~~
最后编辑lvzi 最后编辑于 2017-04-15 13:01:05
陌上花开,可缓缓归矣!
 

回复: [14/4/2017]【贺五月激动社区十周年】 橄榄树乐队专辑《新国风音乐 茉莉花》(WAV 百度)...

非常棒的专辑 感谢楼主分享好专辑
 

回复:[14/4/2017]【贺五月激动社区十周年】 橄榄树乐队专辑《新国风音乐 茉莉花》(WAV 百度)...

感谢楼主分享,
期待楼主完整提供橄榄树乐队的作品
辛苦了
 

回复:[14/4/2017]【贺五月激动社区十周年】 橄榄树乐队专辑《新国风音乐 茉莉花》(WAV 百度)...

橄榄树乐队专辑《新国风音乐 茉莉花》,很美妙的音乐!谢谢斑竹的上传共享!祝贺激动社区十周年!祝各位管管健康幸福!
 

回复 1F e213 的帖子

感谢分享
 

回复:[14/4/2017]【贺五月激动社区十周年】 橄榄树乐队专辑《新国风音乐 茉莉花》(WAV 百度)...

收下听好多谢分享!
 

回复:[14/4/2017]【贺五月激动社区十周年】 橄榄树乐队专辑《新国风音乐 茉莉花》(WAV 百度)...

同賀 熱鬧的橄欖樹樂隊的演奏 謝謝小屹
由於百度網盤 對於台灣網友與對岸限制 以至於過去的鏈結不見 深感抱歉!!!
若能見時可能他們放寬了!!!
*** 上傳的文件 若失效就不再傳了 所以......***
**有回覆 有給e.MAIL 若沒收到寄件 要給我短消息哦!!! ***
祈禱 疫期 早日平復 大家才能好好生活 也希望都平安 康安
 

回复:[14/4/2017]【贺五月激动社区十周年】 橄榄树乐队专辑《新国风音乐 茉莉花》(WAV 百度)...

橄榄树乐队被称为:中国的莫里哀乐队!橄榄树乐队专辑分为《新国风音乐 茉莉花》/《新国风音乐 难忘今宵》/《新国风音乐 月亮代表我的心》/《新国风音乐 在那遥远的地方》/一共4张专辑
美好的音乐我喜欢
 
1  /  5  页   12345 跳转

Copyright @ 2004-2021 www.52jdyy.com  激动社区 - 陪你一起慢慢变老!

皖公网安备 34182502000053号  皖ICP备19010502号