提前祝“情人节”快乐--婚礼进行曲(藏爱)【WAV+CUE】 激动社区,陪你一起慢慢变老! - 激动社区 - Powered by Discuz!NT

激动社区爱乐之城 · 聆听一辑西方古典西方古典-原创区(VIP) 提前祝“情人节”快乐--婚礼进行曲(藏爱)【WAV+CUE】

【版块说明】 本版块为付费版块,需付费成为音乐精灵,回复后才能看见下载链接。音乐精灵详情请查看 论坛置顶帖>>   
1  /  1  页   1 跳转 查看:3032

[古典音乐] 提前祝“情人节”快乐--婚礼进行曲(藏爱)【WAV+CUE】

点击关闭鉴定图章

提前祝“情人节”快乐--婚礼进行曲(藏爱)【WAV+CUE】







------------------------------------------------------------

Exact Audio Copy V0.99 prebeta 5 from 4. May 2009

EAC 抓取日志文件从11. 二月 2019, 18:19

- / 婚礼进行曲(藏爱)

使用驱动器  :HL-DT-STDVDRAM GU90N  Adapter: 0  ID: 0

读取模式    : 保护
使用精确流  : 是
废除音频缓冲 : 是
使用 C2 指针 : 否

读取偏移校正                  : 0
读取 Lead-In 和 Lead-Out      : 否
用静音填充抓取中丢失偏移的采样 : 是
去除首尾静音块                : 否
在 CRC 计算中使用了空样本      : 是
已用接口                      : Win NT 及 2000 本地 Win32 接口

所用输出格式 : 内部 WAV 函数
样本格式    : 44.100 Hz;16 Bit;立体声


被抓轨 CD 的 TOC

    音轨 |  开始  |  长度  | 起始扇区 | 结尾扇区
    --------------------------------------------------
      1  |  0:00.00 |  5:33.53 |      0  |  25027 
      2  |  5:33.53 |  5:14.61 |  25028  |  48638 
      3  | 10:48.39 |  3:59.06 |  48639  |  66569 
      4  | 14:47.45 |  2:16.56 |  66570  |  76825 
      5  | 17:04.26 |  1:27.68 |  76826  |  83418 
      6  | 18:32.19 |  3:17.56 |  83419  |  98249 
      7  | 21:50.00 |  3:17.19 |  98250  |  113043 
      8  | 25:07.19 |  3:19.06 |  113044  |  127974 
      9  | 28:26.25 |  4:48.68 |  127975  |  149642 
      10  | 33:15.18 |  3:38.19 |  149643  |  166011 
      11  | 36:53.37 |  5:03.06 |  166012  |  188742 
      12  | 41:56.43 |  3:06.44 |  188743  |  202736 
      13  | 45:03.12 |  2:11.31 |  202737  |  212592 
      14  | 47:14.43 |  2:18.31 |  212593  |  222973 
      15  | 49:32.74 |  3:09.46 |  222974  |  237194 
      16  | 52:42.45 |  2:14.06 |  237195  |  247250 
      17  | 54:56.51 |  2:52.16 |  247251  |  260166 
      18  | 57:48.67 |  5:32.11 |  260167  |  285077 
      19  | 63:21.03 |  3:11.56 |  285078  |  299458 
      20  | 66:32.59 |  1:27.31 |  299459  |  306014 


范围状态及错误

已选择范围

    文件名 D:\Downloads\婚礼进行曲(藏爱)\婚礼进行曲(藏爱).wav

    可疑位置 0:38:44
    可疑位置 0:40:54 - 0:40:55
    可疑位置 0:53:29
    可疑位置 0:55:13 - 0:55:14
    可疑位置 0:58:50
    可疑位置 0:59:41
    可疑位置 1:01:46
    可疑位置 1:02:19

    峰值电平 100.0 %
    范围质量 99.6 %
    复制 CRC 38427CE0
    复制结束

出现错误

状态报告结尾
(抓了几次,都提示有错,但是听过WAV和CUE,都未发现卡顿、破音及其它问题

曲目:
01.WAGNER:BRIAL CHORUS華格那結婚進行曲
02.MENDELSSOHN WEDDING MARCH孟德爾頌結婚進行曲
03.MOZART THE MARRIAGE OF FIGARO-OVERTURE莫扎特費加洛婚禮序曲
04.TCHAIKOVSDY WEDDING DANCE柴可夫司基結婚舞曲
05.CLARKE:TRUMPET VOLUNTARY克拉克: 小號即興曲
06.TERMS OF ENDEARMENT親密關系
07.WHERE DIO ALL THE GOOD TIME GO良辰吉時
08.THE WEDDING 婚禮的祝福
09.PIANO SUNATA"MOONLIGHT"貝多芬:月光奏鳴曲
10.KREISLER:LiEBE SFREUD 克莱斯勒: 愛之喜
11.MARIELA CINGUATAINE馬利: 金婚式
12.ELGAR:SALUT DAMOUR艾爾加: 愛的禮贊
13.WE WISH YOU A MERRY CHRISTMAS祝你聖誕快樂
14.RUDOLPH THERED NOSED REINDEER紅鼻子鹿
15.HERE COMES SANTA CLAUS聖誕老人
16.JOY TO THE WORLD舉世歡騰
17.THE FIRST NOEL第一個聖誕節
18.AVE MARIA聖母煩
19.SLLENT NIGHT 平安夜
20.音效鞭炮警

试听:08.THE WEDDING 婚禮的祝福
下载链接需登陆后回复可见

       

百度网盘下载:
================================================

& 下载链接需登录后回复可见 &
& 注:聆听一辑分区需音乐精灵登陆后回复可见 &

================================================
環球唱片股份有限公司提供版權
四川音像出版社出版發行
本帖被评分 1 次
 

回复:提前祝“情人节”快乐--婚礼进行曲(藏爱)【WAV+CUE】

祝大家情人节快乐 ,有情人终成眷属
 

回复:提前祝“情人节”快乐--婚礼进行曲(藏爱)【WAV+CUE】

谢谢waterblue的情人节祝福~祝大家情人节快乐~

辛苦waterblue了 ~抓轨第一遍有报错,可能碟片时间比较长了~
请他再重新抓轨,还是报错~不过听起来都没问题~~
waterblue说要不要发布,怕网友有意见~
还是请他发了~喜欢的就下载不喜欢不下载就好了~~
最后编辑lvzi 最后编辑于 2019-02-13 12:24:05
陌上花开,可缓缓归矣!
 

回复:提前祝“情人节”快乐--婚礼进行曲(藏爱)【WAV+CUE】

感谢分享啊
 

回复:提前祝“情人节”快乐--婚礼进行曲(藏爱)【WAV+CUE】

谢谢楼主了,感谢。
 

回复:提前祝“情人节”快乐--婚礼进行曲(藏爱)【WAV+CUE】

不错的婚礼唱片,谢谢分享
 

回复:提前祝“情人节”快乐--婚礼进行曲(藏爱)【WAV+CUE】

好温馨的婚礼乐曲,谢谢分享!
 

回复 1F waterblue 的帖子

喜庆音乐专辑,谢啦。
 

回复: 提前祝“情人节”快乐--婚礼进行曲(藏爱)【WAV+CUE】

谢谢分享
 
1  /  1  页   1 跳转

Copyright @ 2004-2021 www.52jdyy.com  激动社区 - 陪你一起慢慢变老!

皖公网安备 34182502000053号  皖ICP备19010502号