【谢谢shipman2】Classics For Pleasure - Favourite Waltzes 链接失效 激动社区,陪你一起慢慢变老! - 激动社区 - Powered by Discuz!NT

激动社区爱乐之城 · 聆听一辑西方古典西方古典-原创区(VIP) 【谢谢shipman2】Classics For Pleasure - Favourite Waltzes 链接失效

【版块说明】 本版块为付费版块,需付费成为音乐精灵,回复后才能看见下载链接。音乐精灵详情请查看 论坛置顶帖>>   
1  /  3  页   123 跳转 查看:5382

[古典音乐] 【谢谢shipman2】Classics For Pleasure - Favourite Waltzes 链接失效

【谢谢shipman2】Classics For Pleasure - Favourite Waltzes 链接失效

【谢谢shipman2】Classics For Pleasure - Favourite Waltzes (古典华尔兹名曲) [FLAC/整轨] 百度

专辑名称:Favourite Waltzes
专辑音乐:古典
出品公司:英国EMI


01. Tchaikovsky: Waltz of the Flowers, The Nutcracker, Act 2    [0:07:33.15]
02. Waldteufel: The Skaters, Op. 183    [0:07:52.67]
03. J. Strauss, 2nd: On the Beautiful Blue D. Op. 314anube    [0:09:38.38]
04. Ivanovici: Danube Waves    [0:07:59.72]
05. Chopin: Waltz in E Flat Major, Op. 18    [0:05:10.73]
06. Tchaikovsky: Waltz from Swan Lake, Act 1    [0:07:47.07]
07. Delibes: Waltz from Coppelia, Act 1    [0:03:00.00]
08. Sibelius: Valse Triste from Kuolema Incidental Music    [0:04:58.73]
09. Walton: Waltz from Facade, Suite No. 1    [0:03:11.02]
10. J Strauss, 2nd: Vienna Blood, Op. 354    [0:08:16.70]
11. Lehar: Gold and Silver    [0:08:40.68]


试曲: Delibes: Waltz from Coppelia, Act 1
下载链接需登陆后回复可见

       


================================================

& 下载链接需登录后回复可见 &
& 注:聆听一辑分区需音乐精灵登陆后回复可见 &

================================================
本帖被评分 2 次
最后编辑lvzi 最后编辑于 2023-04-02 18:28:50
在此所发布资源, 请勿二传, 或补档。 谢谢合作!如有何需要,请短讯通知,但不一定能满足得到。
 

回复:[17/12/2016]【谢谢shipman2】Classics For Pleasure : Fa...

Exact Audio Copy V1.1 from 23. June 2015

EAC 抓取日志文件从14. 十二月 2016, 22:36

Various Artists / Favourite Waltzes

使用驱动器  :HL-DT-STDVDRAM GP30NB20  Adapter: 1  ID: 0

读取模式      : 可靠Secure
使用精确流    : 是
清空音频缓存    : 是
使用 C2 指示器 : 否

读取偏移校正:              : 0
读取 Lead-In 和 Lead-Out : 否
用静音填充抓取中丢失偏移的采样      : 是
去除首尾静音块              : 否
在CRC 计算中使用了空样本      : 是
已用接口                  : Win NT 及 2000 本地 Win32 接口

所用输出模式:  : 用户定义的编码器
已选比特率    : 896 kBit/s
质量        : 高
添加 ID3 标签 : 否
命令行压缩器    : C:\Program Files\Exact Audio Copy\FLAC\FLAC.EXE
附加命令行参数:  : -8 -V -T "Date=%year%" -T "Genre=%genre%" -T "COMMENT=ripped by Colinkfo;" %source%


已抓取 CD 的 TOC

    音轨 |    起始    |    长度    |  起始扇区  |  结束扇区 
    --------------------------------------------
      1 |  0:00.33 |  7:33.15 |    33 |  34022
      2 |  7:33.48 |  7:52.67 |  34023 |  69489
      3 | 15:26.40 |  9:38.38 |  69490 | 112877
      4 | 25:05.03 |  7:59.72 | 112878 | 148874
      5 | 33:05.00 |  5:10.73 | 148875 | 172197
      6 | 38:15.73 |  7:47.07 | 172198 | 207229
      7 | 46:03.05 |  3:00.00 | 207230 | 220729
      8 | 49:03.05 |  4:58.73 | 220730 | 243152
      9 | 54:02.03 |  3:11.02 | 243153 | 257479
    10 | 57:13.05 |  8:16.70 | 257480 | 294749
    11 | 65:30.00 |  8:40.68 | 294750 | 333817


范围状态及错误

已选择范围

    文件名 H:\New Folder\Various Artists - Favourite Waltzes.wav

    峰值电平 98.8 %
    抓取速度 2.2 X
    范围质量 100.0 %
    复制 CRC 4F16DF45
    复制成功

没有错误发生

状态报告结尾

==== 记录校验日志 2788A422AF36E77388D089E2B8CB2D59E60469960D23C4CDD10F6D12D1A0CD31 ====
在此所发布资源, 请勿二传, 或补档。 谢谢合作!如有何需要,请短讯通知,但不一定能满足得到。
 

回复:[17/12/2016]【谢谢shipman2】Classics For Pleasure - Fa...

各名家華滋可以party了
由於百度網盤 對於台灣網友與對岸限制 以至於過去的鏈結不見 深感抱歉!!!
若能見時可能他們放寬了!!!
*** 上傳的文件 若失效就不再傳了 所以......***
 

回复: [17/12/2016]【谢谢shipman2】Classics For Pleasure - Fa...



引用:
原帖由 shipman2 于 2016-12-17 21:11:00 发表
各名家華滋可以party了  


想着鸟兄要开心了,果然跳起来了~
陌上花开,可缓缓归矣!
 

回复: 【谢谢shipman2】Classics For Pleasure - Favourite Walt...



引用:
原帖由 shipman2 于 2016-12-17 21:11:00 发表
各名家華滋可以party了  


对古典音乐, 还需要向鸟管偷师哈
在此所发布资源, 请勿二传, 或补档。 谢谢合作!如有何需要,请短讯通知,但不一定能满足得到。
 

回复:【谢谢shipman2】Classics For Pleasure - Favourite Walt...

葛佩莉亚圆舞曲?感谢分享!
 

回复:【谢谢shipman2】Classics For Pleasure - Favourite Walt...

谢谢楼主分享!好听啊~~~~不是一般的
 

回复 1F Colinkfo 的帖子

贵宾的舞曲专辑收藏颇丰呀!也很少见!谢谢.
 

回复:【谢谢shipman2】Classics For Pleasure - Favourite Walt...

欣赏了
愿音乐永远陪伴我们的心灵!
 

回复 1F Colinkfo 的帖子

谢谢分享!!!
 
1  /  3  页   123 跳转

Copyright @ 2004-2021 www.52jdyy.com  激动社区 - 陪你一起慢慢变老!

皖公网安备 34182502000053号  皖ICP备19010502号