[25/1/2022]【小年快乐】大自然音乐系列20年荟萃:吴金黛《万籁的絮语》[风潮新碟][原创][wav/bd] 激动社区,陪你一起慢慢变老! - 激动社区 - Powered by Discuz!NT

激动社区爱乐之城 · 聆听一辑亚洲纯音亚洲纯音-原创精品区(VIP) [25/1/2022]【小年快乐】大自然音乐系列20年荟萃:吴金黛《万籁的絮语》[风潮新碟][原创][wav/bd]

【版块说明】 本版块为付费版块,需付费成为音乐精灵,回复后才能看见下载链接。音乐精灵详情请查看 论坛置顶帖>>   
1  /  2  页   12 跳转 查看:328

[原创] [25/1/2022]【小年快乐】大自然音乐系列20年荟萃:吴金黛《万籁的絮语》[风潮新碟][原创][wav/bd]

点击关闭鉴定图章

[25/1/2022]【小年快乐】大自然音乐系列20年荟萃:吴金黛《万籁的絮语》[风潮新碟][原创][wav/bd]


风潮唱片 >> 当代音乐馆 >> 听见大自然系列 > 吴金黛.万籁的絮语
吴金黛.万籁的絮语 TCD-5052






唱片中文名:吴金黛.万籁的絮语
唱片英文名:Nature's Whispering
系列名称:听见大自然系列
制作人:吴金黛
主要音乐家: 吴金黛
唱片公司:风潮音乐
唱片编号:TCD-5052
发行日期:2021年12月31日









◎ 专辑简介

倾听,让大地的美丽长存
大自然音乐系列20年荟萃之作

首度跨出台湾,汇集东非、北欧等世界不同角落的声音
跨越时空限制,收录地球上多种正在消逝的自然人文声响
跨乐种、跨世代,金奖级合作团队

“1994年我跟著民族音乐学者吴荣顺教授到阿里山采风,老闆请我‘顺便’录制一些大自然的声音。我在山上听耆老歌手吟咏,和山谷裡的莫氏树蛙邂逅,没想到便意外地开启了我接下来的大自然音乐旅程,还有这张专辑中好多动人的故事。”——吴金黛

从首张大自然音乐专辑《森林狂想曲》推出,至今已经超过20年,吴金黛持续地走访许多山野、海洋,并进行田野录音,记录下许多动物、昆虫、鸟类、传统歌谣等等珍贵的声音。她将这些声响与音乐结合,陆续发表在多张自然音乐专辑中。有好多的自然天籁透过这些作品被听见,但也还有好多动人的故事还来不及分享。

这次推出全新的专辑《万籁的絮语》,吴金黛从这些年来投入声音採集的经验出发,串联起20多年裡许多精彩动人的相遇。不仅立足台湾,更循著近年的轨迹,前往世界不同的角落,带领听众透过她的生命历程与视角,听见难以到达或者正在改变的场景。在这张专辑中,可以听见台湾珍稀物种爷蝉的鸣唱、小琉球海域的海声,也可以听见北欧冰川的消融、极光的绮丽,还有东非广阔无垠的草原上各种生命的跃动。除此之外,专辑的开场曲中,更收录了1994年吴金黛首次参与声音採集时,所录下几近失传的邹族传统歌谣。

睽违十年再次推出个人专辑,吴金黛也在自然音乐创作中,融入更多元的尝试与更当代的编曲元素,并且邀请到金曲歌王陈建年、三金获奖制作人范宗沛、金音奖最佳电音专辑制作人Ń7ä、独立室内乐团Cicada、金曲奖年度专辑《得力量 pulu'em》制作人曾仁义⋯⋯等,跨世代且跨乐种的金奖级制作团队,一同参与这张专辑,不仅展现自然音乐的多元与包容性,也翻新自然音乐的印象,希望让这个世代持续认识地球上的美丽声响。

每个人都能为地球做一点事,吴金黛透过声音採集与音乐创作,从个人微观的角度,持续地记录著身处的环境与土地。期待你也能在这些“万籁的絮语”中,听见大地声色的流转,进而更加关注、爱惜这片美丽的大地。

※本作品获文化部影视及流行音乐产业局110年补助


【音乐家吴金黛介绍】

★两届金曲奖最佳专辑制作人
★台湾大自然音乐及声响採集代表人物
★参与制作专辑曾获12座金曲奖、2度获得葛莱美提名。

吴金黛,金曲奖最佳专辑制作人,风潮音乐总监。就读美国杨百翰大学音乐系,专攻录音技术。1999年推出的〈森林狂想曲〉巧妙融合台湾物种声响与当代演奏音乐,为台湾的自然音乐领域开启先河。曾制作《森林狂想曲》、《我的海洋》、《最近的天堂》、《鸟》⋯等一系列脍炙人口的大自然系列专辑,擅于将自然与环境中的声响,转变为音乐创作的素材与动机,引领台湾“聆听大自然声音”的热潮。除了自然演奏音乐外,亦擅长跨界音乐制作,致力于传统音乐的保存与活化,并跨足流行音乐,不断突破乐种间的藩篱。

2001年以台湾第一张海洋音乐专辑《我的海洋》荣获金曲奖传统暨艺术类“最佳制作人奖”,2003年以《拍锣兼摃鼓》专辑获得金曲奖“最佳儿童音乐奖”,2010年以《鼓之岛》专辑,入围第52届美国葛莱美“最佳传统世界音乐奖”,2012年以与Daniel Ho共同制作的《吹过岛屿的风》,入围第55届美国葛莱美奖“最佳世界音乐奖”,2013年以《天空的眼睛》荣获第14届美国独立音乐奖“最佳传统世界音乐奖”。





◎ 曲目

01. 万籁奇遇               
02. 飞跃马赛马拉               
03. 蝉眠缠绵 (feat Ń7ä)               
04. 冰川‧木兰               
05. 钻石海滩               
06. 奥罗拉之舞               
07. 洋流裡的飞翔 (feat Cicada)               
08. 森林狂想曲2021 (feat Ń7ä)               
09. 时空中的吉光片羽 (interlude)               
10. 指尖裡的歌咏 (feat 陈建年)


在线试听:07. 洋流裡的飞翔 (feat Cicada)  [128k mp3]

下载链接需登陆后回复可见

       


wav+cue+log+画册/百度云
================================================

& 下载链接需登录后回复可见 &
& 注:聆听一辑分区需音乐精灵登陆后回复可见 &

================================================
风潮唱片官网 吴金黛.万籁的絮语
https://store.windmusic.com.tw/zh/CD/TCD-5052

分享:风潮音乐25周年大礼包 [654CD/无损/百度云]
http://www.52jdyy.com/showtopic-2546211.htm

最后编辑lvzi 最后编辑于 2022-01-25 22:44:53
陌上花开,可缓缓归矣!
 

回复:[25/1/2022]【小年快乐】大自然音乐系列20年荟萃:吴金黛《万籁的絮语》[风潮新碟2021]...

Exact Audio Copy V0.99 prebeta 5 from 4. May 2009

EAC 抓取日志文件从22. 一月 2022, 21:43

未知艺术家 / 未知标题

使用驱动器  :HL-DT-STDVD-ROM DP10N  Adapter: 1  ID: 1

读取模式    : 保护
使用精确流  : 是
废除音频缓冲 : 是
使用 C2 指针 : 否

读取偏移校正                  : 0
读取 Lead-In 和 Lead-Out      : 否
用静音填充抓取中丢失偏移的采样 : 是
去除首尾静音块                : 否
在 CRC 计算中使用了空样本      : 否
已用接口                      : Win NT 及 2000 本地 Win32 接口

所用输出格式 : 内部 WAV 函数
样本格式    : 44.100 Hz;16 Bit;立体声


被抓轨 CD 的 TOC

    音轨 |  开始  |  长度  | 起始扇区 | 结尾扇区
    --------------------------------------------------
      1  |  0:00.00 |  5:15.18 |      0  |  23642 
      2  |  5:15.18 |  5:08.32 |  23643  |  46774 
      3  | 10:23.50 |  2:57.02 |  46775  |  60051 
      4  | 13:20.52 |  5:02.08 |  60052  |  82709 
      5  | 18:22.60 |  5:26.36 |  82710  |  107195 
      6  | 23:49.21 |  6:39.12 |  107196  |  137132 
      7  | 30:28.33 |  6:22.64 |  137133  |  165846 
      8  | 36:51.22 |  3:33.50 |  165847  |  181871 
      9  | 40:24.72 |  1:42.67 |  181872  |  189588 
      10  | 42:07.64 |  4:42.41 |  189589  |  210779 


范围状态及错误

已选择范围

    文件名 C:\lvzi\风潮唱片\听见大自然系列\吴金黛 万籁的絮语\未知艺术家 - 未知标题.wav

    峰值电平 99.9 %
    范围质量 100.0 %
    复制 CRC 5CD8F20D
    复制成功

没有错误发生

状态报告结尾
陌上花开,可缓缓归矣!
 

回复:[25/1/2022]【小年快乐】大自然音乐系列20年荟萃:吴金黛《万籁的絮语》[风潮新碟2021]...


吴金黛 万籁的絮语
中英文画册


友情提醒:关于每一首曲子的故事,敬请阅读~






































陌上花开,可缓缓归矣!
 

回复:[25/1/2022]【小年快乐】大自然音乐系列20年荟萃:吴金黛《万籁的絮语》[风潮新碟2021]...

中国南北小年不同,北方23今天,南方24明天。
我在南方,明日小年。
祝南北方的网友们小年快乐~

更新一下,好像还有更多的小年说法,中国真是地大物博,风俗各不同~
最后编辑lvzi 最后编辑于 2022-01-26 14:36:13
陌上花开,可缓缓归矣!
 

回复:[25/1/2022]【小年快乐】大自然音乐系列20年荟萃:吴金黛《万籁的絮语》[风潮新碟][原创]...

五月小年快乐,谢谢分享吴金黛《万籁的絮语》


新网盘?
最后编辑心空无缘 最后编辑于 2022-01-25 23:06:45
帖子链接失效,请短信通知,我会在第一时间更正

回复了看不见下载地址请看这里

http://www.52jdyy.com/showtopic-2565802.htm
 

回复: [25/1/2022]【小年快乐】大自然音乐系列20年荟萃:吴金黛《万籁的絮语》[风潮新碟][原创]...



引用:
原帖由 心空无缘 于 2022-1-25 23:05:00 发表
五月小年快乐,谢谢分享吴金黛《万籁的絮语》


新网盘?





谢谢,心空小年快乐~


心空火眼金睛啊,是新网盘,新账号买的会员~
陌上花开,可缓缓归矣!
 

回复: [25/1/2022]【小年快乐】大自然音乐系列20年荟萃:吴金黛《万籁的絮语》[风潮新碟][原创]...

管管小年快乐!新碟天籁荟萃,原创发帖辛劳,虎年万事如意!

本帖被评分 1 次
 

回复: [25/1/2022]【小年快乐】大自然音乐系列20年荟萃:吴金黛《万籁的絮语》[风潮新碟][原创]...



引用:
原帖由 四季牧歌 于 2022-1-26 11:20:00 发表
管管小年快乐!新碟天籁荟萃,原创发帖辛劳,虎年万事如意!




谢谢四季牧歌,小年快乐~
陌上花开,可缓缓归矣!
 

回复 1F lvzi 的帖子

谢谢分享
本帖被评分 1 次
 

回复:[25/1/2022]【小年快乐】大自然音乐系列20年荟萃:吴金黛《万籁的絮语》[风潮新碟][原创]...

民谣曰:二十三,糖瓜粘;......总之农历腊月二十三一到,年味就越来越浓了,激动管理献靓碟,论坛网友乐开怀!迎虎年,盼冬奥,双喜临门好热闹,壬寅大家都吉祥,社区明年更兴旺!
一切有为法,如梦幻泡影,如露亦如电,应作如是观
 
1  /  2  页   12 跳转

Copyright @ 2004-2021 www.52jdyy.com  激动社区 - 陪你一起慢慢变老!

皖公网安备 34182502000053号  皖ICP备19010502号