中文歌曲英语唱 男女混声组合专辑《经典校园情怀欧美篇-ROMANCE 随风》(WAV/百度) 激动社区,陪你一起慢慢变老! - 激动社区 - Powered by Discuz!NT

激动社区爱乐之城 · 聆听一辑欧美流行欧美流行-网盘无损区 中文歌曲英语唱 男女混声组合专辑《经典校园情怀欧美篇-ROMANCE 随风》(WAV/百度)

1  /  2  页   12 跳转 查看:1772

[原创] 中文歌曲英语唱 男女混声组合专辑《经典校园情怀欧美篇-ROMANCE 随风》(WAV/百度)

中文歌曲英语唱 男女混声组合专辑《经典校园情怀欧美篇-ROMANCE 随风》(WAV/百度)









经典校园情怀欧美篇-ROMANCE 随风
男女混声组合演唱
广东音像出品
2003年


中歌西唱专辑 经典校园情怀欧美篇 一年一度的高校毕业季又到来了,值此之际,发此专辑纪念我们逝去的青春,祝毕业学子一帆风顺!



专辑曲目


01.I'LL WAIT FOR YOU MY LOVE我是不是你最疼爱的人
02.WHENEVER I'M LOST IN LOVE是你 是你 是你
03.I'M AFRAID TO LOVE AGAIN于是我学会了原谅
04.YOU SHOULD KNOW你应该知道如何爱着我
05.BLUE SKY心情
06.IT TOO LATE TO CRY NOW只要你过得比我好
07.SHALALA-SHING-LINGA LING思念是一种病
08.PLEASE DANCE WITH ME别说可惜
09.MY DREAMS COME TRUE鲁冰花
10.LONELINESS情宇
11.WAIT A RIDE雪在烧
12.IN YOUR EYES看不到你的心




试听曲 01+06
下载链接需登陆后回复可见

       



专辑百度盘下载


(WAV+CUE)

================================================

& 下载链接需登录后回复可见 &
& 注:聆听一辑分区需音乐精灵登陆后回复可见 &

================================================

本帖被评分 1 次
最后编辑e213 最后编辑于 2017-06-19 17:13:39
本论坛音频仅供网友试听之用 勿作商用 专辑版权归唱片公司所有


音乐无限    我爱音乐    感谢音乐
 

论坛音乐精灵获取方式
                               
 

回复:中文歌曲英语唱 男女混声组合专辑《经典校园情怀欧美篇-ROMANCE 随风》(WAV/百度)

Exact Audio Copy V1.0 beta 3 from 29. August 2011

EAC 抓取日志文件从19. 六月 2017, 17:05

男女混声组合 / 经典校园情怀欧美篇-ROMANCE 随风

使用驱动器  :PIONEER DVD-ROM DVD-232  Adapter: 3  ID: 0

读取模式 : 快速

读取偏移校正:              : 6
读取 Lead-In 和 Lead-Out : 否
用静音填充抓取中丢失偏移的采样      : 否
去除首尾静音块              : 否
在CRC 计算中使用了空样本      : 是
已用接口                  : Win NT 及 2000 本地 Win32 接口

所用输出模式: : 内部 WAV 函数
样本格式    : 44.100 Hz; 16 Bit; 立体声


已抓取 CD 的 TOC

    音轨 |    起始    |    长度    |  起始扇区  |  结束扇区 
    --------------------------------------------
      1 |  0:00.00 |  4:29.64 |      0 |  20238
      2 |  4:29.64 |  4:27.25 |  20239 |  40288
      3 |  8:57.14 |  3:38.17 |  40289 |  56655
      4 | 12:35.31 |  4:26.18 |  56656 |  76623
      5 | 17:01.49 |  4:30.49 |  76624 |  96922
      6 | 21:32.23 |  4:33.53 |  96923 | 117450
      7 | 26:06.01 |  3:54.39 | 117451 | 135039
      8 | 30:00.40 |  3:57.62 | 135040 | 152876
      9 | 33:58.27 |  4:08.70 | 152877 | 171546
    10 | 38:07.22 |  4:22.28 | 171547 | 191224
    11 | 42:29.50 |  4:52.52 | 191225 | 213176
    12 | 47:22.27 |  4:39.47 | 213177 | 234148


范围状态及错误

已选择范围

    文件名 H:\My Music\男女声混声合唱 随风\男女混声组合 - 经典校园情怀欧美篇-ROMANCE 随风.wav

    峰值电平 100.0 %
    抓取速度 2.1 X
    复制 CRC 3C4BE098
    复制成功

没有错误发生

状态报告结尾
本论坛音频仅供网友试听之用 勿作商用 专辑版权归唱片公司所有


音乐无限    我爱音乐    感谢音乐
 

论坛音乐精灵获取方式
                               
 

回复:中文歌曲英语唱 男女混声组合专辑《经典校园情怀欧美篇-ROMANCE 随风》(WAV/百度)

毕业季~~虽然天天朋友圈里都在高考~~不过,还是快忘了真正的毕业季~~
中文歌曲英文唱~听听~~
陌上花开,可缓缓归矣!
 

回复:中文歌曲英语唱 男女混声组合专辑《经典校园情怀欧美篇-ROMANCE 随风》(WAV/百度)

可以下载后听听,谢谢提供分享
 

回复:中文歌曲英语唱 男女混声组合专辑《经典校园情怀欧美篇-ROMANCE 随风》(WAV/百度)

不错的专辑,谢谢分享
 

回复:中文歌曲英语唱 男女混声组合专辑《经典校园情怀欧美篇-ROMANCE 随风》(WAV/百度)

感谢楼主的无私分享
 

回复:中文歌曲英语唱 男女混声组合专辑《经典校园情怀欧美篇-ROMANCE 随风》(WAV/百度)

谢谢分享。
 

回复:中文歌曲英语唱 男女混声组合专辑《经典校园情怀欧美篇-ROMANCE 随风》(WAV/百度)

感谢分享。
 

回复:中文歌曲英语唱 男女混声组合专辑《经典校园情怀欧美篇-ROMANCE 随风》(WAV/百度)

这个有意思  很好
 

回复:中文歌曲英语唱 男女混声组合专辑《经典校园情怀欧美篇-ROMANCE 随风》(WAV/百度)

非常感放小屹版分享这张难得的中翻英专辑,以前收藏过青春派对组合的这类风格的歌曲,别有一番风味,非常好听,谢谢
 
1  /  2  页   12 跳转


Copyright @ 2004-2021 www.52jdyy.com  激动社区 - 陪你一起慢慢变老!

皖公网安备 34182502000053号  皖ICP备19010502号