[21/10/2012]快乐唱片:龙飘飘·龙腔雅韵VOL.21 中国情[wav] 激动社区,陪你一起慢慢变老! - 激动社区 - Powered by Discuz!NT

激动社区聆听一辑激动精典 [21/10/2012]快乐唱片:龙飘飘·龙腔雅韵VOL.21 中国情[wav]

1  /  8  页   12345678 跳转 查看:2618

[精品典藏] [21/10/2012]快乐唱片:龙飘飘·龙腔雅韵VOL.21 中国情[wav]

[21/10/2012]快乐唱片:龙飘飘·龙腔雅韵VOL.21 中国情[wav]

龙飘飘·龙腔雅韵VOL.21 中国情



唱片名称:龙腔雅韵VOL.21 中国情
演唱歌手:龙飘飘
唱片编号:HCD 01051
发行公司:快乐唱片机构有限公司
发行日期:1993


龙飘飘·龙腔雅韵VOL.21 中国情

雪里红 快回头望一望(首次发表)


1993 HAPPY RECORDS SDN BERHAD

01 雪里红
02 快回头望一望
03 弥渡山歌
04 梨山痴情花
05 茶山姑娘
06 马兰山歌
07 碧兰村的姑娘
08 康定情歌
09 白云下的牧场
10 白云
11 站在高岗上
12 上山岗


在线试听:茶山姑娘 [128K mp3]

下载链接需登陆后回复可见

       

下载链接(本论坛下载):
================================================

& 下载链接需登录后回复可见 &
& 注:聆听一辑分区需音乐精灵登陆后回复可见 &

================================================
本站音乐仅供试听及音乐推广,请购买正版音乐CD支持您喜爱的歌手。
音乐版权归各音乐公司及个人所有,如侵犯到您的版权请及时联系,确认后立即删除。
回首望星辰 往事如烟云
犹记别离时 徒留雪中情
 

回复: [21/10/2012]快乐唱片:龙飘飘·龙腔雅韵VOL.21 中国情[wav]



引用:
Exact Audio Copy V0.99 prebeta 5 from 4. May 2009

EAC 抓取日志文件从20. 十月 2012, 19:50

未知艺术家 / 未知标题

使用驱动器  :TSSTcorpCDDVDW TS-H662A  Adapter: 0  ID: 0

读取模式    : 保护
使用精确流  : 是
废除音频缓冲 : 是
使用 C2 指针 : 否

读取偏移校正                  : 0
读取 Lead-In 和 Lead-Out      : 否
用静音填充抓取中丢失偏移的采样 : 是
去除首尾静音块                : 否
在 CRC 计算中使用了空样本      : 是
已用接口                      : Win NT 及 2000 本地 Win32 接口

所用输出格式 : 内部 WAV 函数
样本格式    : 44.100 Hz;16 Bit;立体声


被抓轨 CD 的 TOC

    音轨 |  开始  |  长度  | 起始扇区 | 结尾扇区
    --------------------------------------------------
      1  |  0:00.00 |  2:53.70 |      0  |  13044 
      2  |  2:53.70 |  3:41.40 |  13045  |  29659 
      3  |  6:35.35 |  3:16.60 |  29660  |  44419 
      4  |  9:52.20 |  2:40.00 |  44420  |  56419 
      5  | 12:32.20 |  2:48.32 |  56420  |  69051 
      6  | 15:20.52 |  3:50.18 |  69052  |  86319 
      7  | 19:10.70 |  3:18.32 |  86320  |  101201 
      8  | 22:29.27 |  2:58.73 |  101202  |  114624 
      9  | 25:28.25 |  2:22.52 |  114625  |  125326 
      10  | 27:51.02 |  3:37.53 |  125327  |  141654 
      11  | 31:28.55 |  3:30.60 |  141655  |  157464 
      12  | 34:59.40 |  2:51.22 |  157465  |  170311 


范围状态及错误

已选择范围

    文件名 E:\☆ 风也帅 ☆\龙飘飘 龙腔雅韵VOL.21 中国情\未知艺术家 - 未知标题.wav

    峰值电平 91.7 %
    范围质量 100.0 %
    复制 CRC 8973F3EE
    复制成功

没有错误发生

状态报告结尾
回首望星辰 往事如烟云
犹记别离时 徒留雪中情
 

回复: [21/10/2012]快乐唱片:龙飘飘·龙腔雅韵VOL.21 中国情[wav]



引用:
REM DISCID 9408DE0C
REM COMMENT "ExactAudioCopy v0.99pb5"
PERFORMER "龙飘飘"
TITLE "龙腔雅韵VOL.21 中国情"
FILE "龙飘飘 - 龙腔雅韵VOL.21 中国情.wav" WAVE
  TRACK 01 AUDIO
    TITLE "雪里红"
    PERFORMER "龙飘飘"
    INDEX 01 00:00:00
  TRACK 02 AUDIO
    TITLE "快回头望一望"
    PERFORMER "龙飘飘"
    INDEX 01 02:53:70
  TRACK 03 AUDIO
    TITLE "弥渡山歌"
    PERFORMER "龙飘飘"
    INDEX 01 06:35:35
  TRACK 04 AUDIO
    TITLE "梨山痴情花"
    PERFORMER "龙飘飘"
    INDEX 01 09:52:20
  TRACK 05 AUDIO
    TITLE "茶山姑娘"
    PERFORMER "龙飘飘"
    INDEX 01 12:32:20
  TRACK 06 AUDIO
    TITLE "马兰山歌"
    PERFORMER "龙飘飘"
    INDEX 01 15:20:52
  TRACK 07 AUDIO
    TITLE "碧兰村的姑娘"
    PERFORMER "龙飘飘"
    INDEX 01 19:10:70
  TRACK 08 AUDIO
    TITLE "康定情歌"
    PERFORMER "龙飘飘"
    INDEX 01 22:29:27
  TRACK 09 AUDIO
    TITLE "白云下的牧场"
    PERFORMER "龙飘飘"
    INDEX 01 25:28:25
  TRACK 10 AUDIO
    TITLE "白云"
    PERFORMER "龙飘飘"
    INDEX 01 27:51:02
  TRACK 11 AUDIO
    TITLE "站在高岗上"
    PERFORMER "龙飘飘"
    INDEX 01 31:28:55
  TRACK 12 AUDIO
    TITLE "上山岗"
    PERFORMER "龙飘飘"
    INDEX 01 34:59:40
回首望星辰 往事如烟云
犹记别离时 徒留雪中情
 

回复:[21/10/2012]快乐唱片:龙飘飘·龙腔雅韵VOL.21 中国情[wav]

首席支持车管的好专辑,但不知能否下载。
 

回复: [21/10/2012]快乐唱片:龙飘飘·龙腔雅韵VOL.21 中国情[wav]



引用:
原帖由 nw_wang 于 2012-10-21 10:43:00 发表
首席支持车管的好专辑,但不知能否下载。




  如果你是音乐精灵就没得问题,谢谢车管  !
 

回复:[21/10/2012]快乐唱片:龙飘飘·龙腔雅韵VOL.21 中国情[wav]

这么好的一套专辑,在无损中却没见着。很是遗憾
 

回复:[21/10/2012]快乐唱片:龙飘飘·龙腔雅韵VOL.21 中国情[wav]

龙飘飘的好专辑 很喜欢  O(∩_∩)O谢谢 
 

回复: [21/10/2012]快乐唱片:龙飘飘·龙腔雅韵VOL.21 中国情[wav]

龙飘飘全新演绎中国情,龙腔雅韵第21集,谢谢,辛苦了
 

回复:[21/10/2012]快乐唱片:龙飘飘·龙腔雅韵VOL.21 中国情[wav]

是龙飘飘的美丽歌曲中最好听的全部歌曲,曲曲都是主打,谢谢分享
 

回复:[21/10/2012]快乐唱片:龙飘飘·龙腔雅韵VOL.21 中国情[wav]

谢谢辛苦的风帅!并祝周末愉快!
  提示; 
 
1  /  8  页   12345678 跳转