[6/3/2022]第一次发帖,试传一盒磁带(圣女合唱组--如歌的行板) 激动社区,陪你一起慢慢变老! - 激动社区 - Powered by Discuz!NT

激动社区爱乐之城 · 聆听一辑西方古典西方古典-Mp3区(VIP) [6/3/2022]第一次发帖,试传一盒磁带(圣女合唱组--如歌的行板)

版块说明:
◎ 本版块为社区本地下载收费版块,需付费成为音乐精灵,回复后才能看见下载链接。音乐精灵详情请查看 论坛置顶帖>>
◎ 『激动社区』品牌唱片公司及专辑下载索引汇总(附本地下载必备软件):http://www.52jdyy.com/showtopic-1553975.htm
【本地MP3区下载必备】txt、rar及mp3文件的批量下载自动重命名解压缩教程(简易版):http://www.52jdyy.com/showtopic-2556282.htm
   
2  /  2  页   12 跳转 查看:1194

[6/3/2022]第一次发帖,试传一盒磁带(圣女合唱组--如歌的行板)

回复: [6/3/2022]第一次发帖,试传一盒磁带(圣女合唱组--如歌的行板)



引用:
原帖由 e213 于 2022-3-7 08:46:00 发表
录制的不错,wma格式也可以,不过现在能行的无损格式以wav 、ape、flac等格式为主,录制什么格式,录音软件一般都有选项,自己愿意用什么格式就用什么格式,如果不会制作cue播放文件,,整体录制好的音频可以把歌曲分割成一个一个的单曲。这 也是根据每个人的喜好来进行。



谢谢小屹~


又有新问题:录制好的音频,怎么把歌曲分割成一个个的单曲呢?
还是这个录制软件?
最后编辑lvzi 最后编辑于 2022-03-07 11:41:02
陌上花开,可缓缓归矣!
 

回复: [6/3/2022]第一次发帖,试传一盒磁带(圣女合唱组--如歌的行板)



引用:
原帖由 e213 于 2022-3-7 08:50:00 发表


引用:
原帖由 pianoccc 于 2022-3-6 20:31:00 发表
用的是Cool Edit Pro,就是从论坛网友的链接下载的,不过有个问题是无法转MP3格式,提示是缺少组件,可能是汉化版本问题导致。所以选择转WMA格式的。



无损文件可以直接用播放软件转换成mp3格式有损文件。这是音质所决定的。但有损文件就不能转换成无损文件,这就是所谓的假无损了,是最令网友厌恶的行为。





嗯嗯,就是说软件无法直接录mp3格式,所以可以先录制成无损格式,再用播放软件比如千千静听之类的转换成mp3格式。
如果先录制的wma格式,就比较难转无损了。
目前大家更喜欢的还是无损格式。


最后编辑lvzi 最后编辑于 2022-03-07 13:44:05
陌上花开,可缓缓归矣!
 

回复: [6/3/2022]第一次发帖,试传一盒磁带(圣女合唱组--如歌的行板)



引用:
原帖由 e213 于 2022-3-7 08:46:00 发表
录制的不错,wma格式也可以,不过现在能行的无损格式以wav 、ape、flac等格式为主,录制什么格式,录音软件一般都有选项,自己愿意用什么格式就用什么格式,如果不会制作cue播放文件,,整体录制好的音频可以把歌曲分割成一个一个的单曲。这 也是根据每个人的喜好来进行。

开始转录生成的就是WAV文件,磁带单面下来都900多兆了,好像论坛限制不能超过30M。所以后面就转格式,第一次用MP3,但软件有问题所以后来选WMA了,才得以顺利上传。
我考虑本身磁带音质就起点低,所以个人感觉转无损意义不大,如是CD光盘则可以。
 

回复: [6/3/2022]第一次发帖,试传一盒磁带(圣女合唱组--如歌的行板)



引用:
原帖由 pianoccc 于 2022-3-7 13:01:00 发表


引用:
原帖由 e213 于 2022-3-7 08:46:00 发表
录制的不错,wma格式也可以,不过现在能行的无损格式以wav 、ape、flac等格式为主,录制什么格式,录音软件一般都有选项,自己愿意用什么格式就用什么格式,如果不会制作cue播放文件,,整体录制好的音频可以把歌曲分割成一个一个的单曲。这 也是根据每个人的喜好来进行。

开始转录生成的就是WAV文件,磁带单面下来都900多兆了,好像论坛限制不能超过30M。所以后面就转格式,第一次用MP3,但软件有问题所以后来选WMA了,才得以顺利上传。
我考虑本身磁带音质就起点低,所以个人感觉转无损意义不大,如是CD光盘则可以。





论坛上传的是试听曲,限制是30M,作为单曲来说应该是足够了。
wav文件一般属于专辑,包括像这种A面和B面这种,相当于2cd,这种可以直接上传到百度网盘分享。


就是:直接磁带录下来的是wav文件,单面可以900M,上传到百度网盘,再分享到论坛。试听曲可以截取一首,转为mp3,上传到论坛本地。


磁带的mp3和无损还是有区别?好像其他网友转的都是无损~
陌上花开,可缓缓归矣!
 

回复:[6/3/2022]第一次发帖,试传一盒磁带(圣女合唱组--如歌的行板)

有音频切割 合并软件,播放一首歌曲结束后的位置直接切割就行,音频编辑 录音软件也可切割,当初鸟锅分享的total recorder录音软件就可以分割。楼主用的录音软件Cool Edit Pro 也可以分割,把暂时不要的其他歌曲音频选中,用软件上的剪刀按扭就可以剪切点选种部分的音频,另存为就行,千万不要存为,否则其他剪去的音频无法恢复,就只有这首歌曲了,其他歌曲重复类似的操作就行。当然用cue分割也行,找一个cue文件,又txt文件打开,把相关歌曲名改成专辑中的歌曲名,在根据每首歌曲在Cool Edit Pro 的位置,修改cue中歌曲播放开始、结束位置的时间就行了。

  TRACK 01 AUDIO
    TITLE "Prelude And The Sound Of Music"
    PERFORMER "Various"
    INDEX 00 00:00:00
    INDEX 01 00:00:37
  TRACK 02 AUDIO
    TITLE "Overture And Preludium (Dixit Dominus)"
    PERFORMER "Various"
    INDEX 00 02:37:50
    INDEX 01 02:38:60


INDEX 00 表示上一首歌曲的结束时间      INDEX 01 02:38:60 表示本首歌曲的开始播放时间、如果cue中后面歌曲没有INDEX 00 ,只有 INDEX 01 则说明上首歌曲结束时间,就是下首歌曲的开始时间。
最后编辑e213 最后编辑于 2022-03-07 18:51:28
本论坛音频仅供网友试听之用 勿作商用 专辑版权归唱片公司所有     
特别提示:社区VIP版块资源 只有音乐精灵级别网友回复可见下载链接
音乐精灵获取方式请点击 

音乐无限    我爱音乐    感谢音乐
 

回复: [6/3/2022]第一次发帖,试传一盒磁带(圣女合唱组--如歌的行板)



引用:
原帖由 e213 于 2022-3-7 18:40:00 发表
有音频切割 合并软件,播放一首歌曲结束后的位置直接切割就行,音频编辑 录音软件也可切割,当初鸟锅分享的total recorder录音软件就可以分割。楼主用的录音软件Cool Edit Pro 也可以分割,把暂时不要的其他歌曲音频选中,用软件上的剪刀按扭就可以剪切点选种部分的音频,另存为就行,千万不要存为,否则其他剪去的音频无法恢复,就只有这首歌曲了,其他歌曲重复类似的操作就行。当然用cue分割也行,找一个cue文件,又txt文件打开,把相关歌曲名改成专辑中的歌曲名,在根据每首歌曲在Cool Edit Pro 的位置,修改cue中歌曲播放开始、结束位置的时间就行了。

  TRACK 01 AUDIO
    TITLE "Prelude And The Sound Of Music"
    PERFORMER "Various"
    INDEX 00 00:00:00
    INDEX 01 00:00:37
  TRACK 02 AUDIO
    TITLE "Overture And Preludium (Dixit Dominus)"
    PERFORMER "Various"
    INDEX 00 02:37:50
    INDEX 01 02:38:60


INDEX 00 表示上一首歌曲的结束时间      INDEX 01 02:38:60 表示本首歌曲的开始播放时间、如果cue中后面歌曲没有INDEX 00 ,只有 INDEX 01 则说明上首歌曲结束时间,就是下首歌曲的开始时间。


谢谢小屹详细的介绍~
学会了,只是,好像还是需要人工操作,我以为会有自动识别歌曲并进行分割成单曲的功能~能够自动生成cue就最棒了~我是不是太懒了~
最后编辑lvzi 最后编辑于 2022-03-07 19:28:56
陌上花开,可缓缓归矣!
 

回复:[6/3/2022]第一次发帖,试传一盒磁带(圣女合唱组--如歌的行板)

谢谢分享。
 

该用户帖子内容已被屏蔽
 

回复:[6/3/2022]第一次发帖,试传一盒磁带(圣女合唱组--如歌的行板)

圣女合唱团?难得呀,谢谢
 

回复:[6/3/2022]第一次发帖,试传一盒磁带(圣女合唱组--如歌的行板)

谢谢分享
 
2  /  2  页   12 跳转

Copyright @ 2004-2021 www.52jdyy.com  激动社区 - 陪你一起慢慢变老!

皖公网安备 34182502000053号  皖ICP备19010502号