丝竹新情 - 笛, 琵琶, 二胡与50把提琴的缠绵交响 flac百度 激动社区,陪你一起慢慢变老! - 激动社区 - Powered by Discuz!NT

激动社区爱乐之城 · 爱乐之门爱乐之门 丝竹新情 - 笛, 琵琶, 二胡与50把提琴的缠绵交响 flac百度

1  /  2  页   12 跳转 查看:2132

[其他主题] 丝竹新情 - 笛, 琵琶, 二胡与50把提琴的缠绵交响 flac百度

丝竹新情 - 笛, 琵琶, 二胡与50把提琴的缠绵交响 flac百度

丝竹新情 - 笛, 琵琶, 二胡与50把提琴的缠绵交响  flac百度




新马版,翁清溪编曲,上海交响乐团演奏。
曲目:
01, 几度花落时
02. 蓝与黑
03. 情人的眼泪
04. 小时候
05. 我怎能离开你
06. 情人的黄襯衫
07. 五月的风
08. 神秘女郎
09. 负心的人
10. 落花流水
11. 雪山盟
12. 留恋
13. 我在你左右
14. 不了情
15. 心声泪痕
16. 蓝色的梦
17. 寒雨曲
18. 心上人

试听下载链接需登陆后回复可见

       
================================================

& 下载链接需登录后回复可见 &
& 注:聆听一辑分区需音乐精灵登陆后回复可见 &

================================================
谢谢jiahengyi提供资源补档~^_^
最后编辑lvzi 最后编辑于 2020-10-13 17:44:46
一份眷念放于我心,等待重逢,日夜期盼
 

回复:丝竹新情 - 笛, 琵琶, 二胡与50把提琴的缠绵交响 flac百度

Exact Audio Copy V1.1 from 23. June 2015

EAC 抓取日志文件从6. 二月 2020, 1:22

絲竹新情 / 笛, 琵琶, 二胡与50把提琴的缠绵交响

使用驱动器  :HL-DT-STDVDRAM GP30NB20  Adapter: 1  ID: 0

读取模式      : 可靠Secure
使用精确流    : 是
清空音频缓存    : 是
使用 C2 指示器 : 否

读取偏移校正:              : 6
读取 Lead-In 和 Lead-Out : 否
用静音填充抓取中丢失偏移的采样      : 是
去除首尾静音块              : 否
在CRC 计算中使用了空样本      : 是
已用接口                  : Win NT 及 2000 本地 Win32 接口

所用输出模式:  : 用户定义的编码器
已选比特率    : 896 kBit/s
质量        : 高
添加 ID3 标签 : 否
命令行压缩器    : C:\Program Files\Exact Audio Copy\FLAC\FLAC.EXE
附加命令行参数:  : -8 -V -T "Date=%year%" -T "Genre=%genre%" -T "COMMENT=ripped by Colinkfo;" %source%


已抓取 CD 的 TOC

    音轨 |    起始    |    长度    |  起始扇区  |  结束扇区 
    --------------------------------------------
      1 |  0:00.00 |  4:06.70 |      0 |  18519
      2 |  4:06.70 |  3:37.45 |  18520 |  34839
      3 |  7:44.40 |  6:27.15 |  34840 |  63879
      4 | 14:11.55 |  2:56.72 |  63880 |  77151
      5 | 17:08.52 |  2:53.08 |  77152 |  90134
      6 | 20:01.60 |  2:49.67 |  90135 | 102876
      7 | 22:51.52 |  2:39.28 | 102877 | 114829
      8 | 25:31.05 |  4:22.30 | 114830 | 134509
      9 | 29:53.35 |  3:41.72 | 134510 | 151156
    10 | 33:35.32 |  3:40.03 | 151157 | 167659
    11 | 37:15.35 |  3:02.52 | 167660 | 181361
    12 | 40:18.12 |  3:58.20 | 181362 | 199231
    13 | 44:16.32 |  4:04.25 | 199232 | 217556
    14 | 48:20.57 |  2:59.10 | 217557 | 230991
    15 | 51:19.67 |  3:33.38 | 230992 | 247004
    16 | 54:53.30 |  4:11.05 | 247005 | 265834
    17 | 59:04.35 |  3:56.17 | 265835 | 283551
    18 | 63:00.52 |  2:41.43 | 283552 | 295669


范围状态及错误

已选择范围

    文件名 H:\New Folder\絲竹新情 - 笛, 琵琶, 二胡与50把提琴的缠绵交响.wav

    峰值电平 100.0 %
    抓取速度 4.8 X
    范围质量 100.0 %
    复制 CRC 99CD5337
    复制成功

没有错误发生

状态报告结尾

==== 记录校验日志 C4EBC2A656851EBD50707DA223B3CE4072DC8487DF78205EAE9BC4DC92636156 ====
一份眷念放于我心,等待重逢,日夜期盼
 

回复:丝竹新情 - 笛, 琵琶, 二胡与50把提琴的缠绵交响 flac百度

非常婉转清新的民乐交响!谢谢楼主
 

回复: 丝竹新情 - 笛, 琵琶, 二胡与50把提琴的缠绵交响 flac百度



引用:
原帖由 dyph 于 2020-9-27 22:06:00 发表
非常婉转清新的民乐交响!谢谢楼主  


谢谢您喜欢,更应该感谢原创者。
一份眷念放于我心,等待重逢,日夜期盼
 

回复:丝竹新情 - 笛, 琵琶, 二胡与50把提琴的缠绵交响 flac百度

这些乐器组合起来演奏美妙极了,谢谢楼主制作分享!
美妙的音乐 令人回味无穷
 

回复: 丝竹新情 - 笛, 琵琶, 二胡与50把提琴的缠绵交响 flac百度



引用:
原帖由 liu0819 于 2020-9-28 11:37:00 发表
这些乐器组合起来演奏美妙极了,谢谢楼主制作分享!


客气啦,您喜欢我就很开心。
一份眷念放于我心,等待重逢,日夜期盼
 

回复:丝竹新情 - 笛, 琵琶, 二胡与50把提琴的缠绵交响 flac百度

非常不错,谢谢楼主提供分享
 

回复:丝竹新情 - 笛, 琵琶, 二胡与50把提琴的缠绵交响 flac百度

好听的民乐,谢谢分享
 

回复:丝竹新情 - 笛, 琵琶, 二胡与50把提琴的缠绵交响 flac百度

发在这里没注意到,来晚了,谢谢jiahengyi分享~~
陌上花开,可缓缓归矣!
 

回复:丝竹新情 - 笛, 琵琶, 二胡与50把提琴的缠绵交响 flac百度

谢谢jiahengyi提供资源,重新补档~
陌上花开,可缓缓归矣!
 
1  /  2  页   12 跳转

Copyright @ 2004-2021 www.52jdyy.com  激动社区 - 陪你一起慢慢变老!

皖公网安备 34182502000053号  皖ICP备19010502号