[17/10/2012][轻曲妙韵尽精英-国语专辑][原创][WAV/迅雷快传] 激动社区,陪你一起慢慢变老! - 激动社区 - Powered by Discuz!NT

激动社区爱乐之城 · 爱乐之门音乐回收站 [17/10/2012][轻曲妙韵尽精英-国语专辑][原创][WAV/迅雷快传]

1  /  8  页   12345678 跳转 查看:9648

[17/10/2012][轻曲妙韵尽精英-国语专辑][原创][WAV/迅雷快传]

[17/10/2012][轻曲妙韵尽精英-国语专辑][原创][WAV/迅雷快传]

专辑名称:轻曲妙韵尽精英-国语专辑
出版发行:U.K. Trading Co.
唱片编号:UKCD-1128
出版年份:1990

曲目
01.你知道我在等你吗?
02.耶利亚女郎(耶利亚)
03.说声珍重(珍重)
04.让我一次爱个够(只愿一生爱一人)
05.她的背影(谁明浪子心)
06.惦记这一些(一生何求)
07.血染的风采
08.是否我真的一无所有(一无所有)
09.故事的角色(故事的角色)
10.安妮(可能)
11.你的样子(也许不易)
12.一场游戏一场梦(几分伤心几分痴)
13.无言的结局(难言再见)
14.结束(还有)
15.一样的天空
16.驿动的心(祝福)







解压密码

试听
无言的结局(128K mp3)
下载链接需登陆后回复可见

       
================================================

& 下载链接需登录后回复可见 &
& 注:聆听一辑分区需音乐精灵登陆后回复可见 &

================================================
本站音乐仅供试听及音乐推广,请购买正版音乐CD支持您喜爱的歌手。
音乐版权归各音乐公司及个人所有,如侵犯到您的版权请及时联系,确认后立即删除。
本帖被评分 1 次
 

回复:[17/10/2012][轻曲妙韵尽精英-国语专辑][原创][WAV/迅雷快传]

Exact Audio Copy V0.99 prebeta 5 from 4. May 2009

EAC 抓取日志文件从7. 七月 2012, 17:32

- / 轻曲妙韵尽精英-国语专辑

使用驱动器  :PLEXTOR CD-R  PX-320A  Adapter: 3  ID: 1

读取模式    : 保护
使用精确流  : 是
废除音频缓冲 : 是
使用 C2 指针 : 否

读取偏移校正                  : 0
读取 Lead-In 和 Lead-Out      : 否
用静音填充抓取中丢失偏移的采样 : 是
去除首尾静音块                : 否
在 CRC 计算中使用了空样本      : 否
已用接口                      : Win NT 及 2000 本地 Win32 接口

所用输出格式 : 内部 WAV 函数
样本格式    : 44.100 Hz;16 Bit;立体声


被抓轨 CD 的 TOC

    音轨 |  开始  |  长度  | 起始扇区 | 结尾扇区
    --------------------------------------------------
      1  |  0:00.00 |  4:06.60 |      0  |  18509 
      2  |  4:06.60 |  4:03.28 |  18510  |  36762 
      3  |  8:10.13 |  5:49.30 |  36763  |  62967 
      4  | 13:59.43 |  3:25.20 |  62968  |  78362 
      5  | 17:24.63 |  4:36.57 |  78363  |  99119 
      6  | 22:01.45 |  4:09.05 |  99120  |  117799 
      7  | 26:10.50 |  3:29.38 |  117800  |  133512 
      8  | 29:40.13 |  4:01.67 |  133513  |  151654 
      9  | 33:42.05 |  4:35.48 |  151655  |  172327 
      10  | 38:17.53 |  4:22.10 |  172328  |  191987 
      11  | 42:39.63 |  3:15.12 |  191988  |  206624 
      12  | 45:55.00 |  3:43.65 |  206625  |  223414 
      13  | 49:38.65 |  3:35.73 |  223415  |  239612 
      14  | 53:14.63 |  3:44.25 |  239613  |  256437 
      15  | 56:59.13 |  4:05.25 |  256438  |  274837 
      16  | 61:04.38 |  3:15.07 |  274838  |  289469 


范围状态及错误

已选择范围

    文件名 P:\音乐\轻曲妙韵尽精英-国语专辑\轻曲妙韵尽精英-国语专辑.wav

    峰值电平 99.6 %
    范围质量 99.9 %
    复制 CRC DE0429A1
    复制成功

没有错误发生

状态报告结尾
-----------------------------------
REM DATE 1990
REM DISCID E70F1310
REM COMMENT "ExactAudioCopy v0.99pb5"
PERFORMER ""
TITLE "轻曲妙韵尽精英-国语专辑"
FILE "轻曲妙韵尽精英-国语专辑.wav" WAVE
  TRACK 01 AUDIO
    TITLE "你知道我在等你吗?"
    PERFORMER ""
    INDEX 01 00:00:00
  TRACK 02 AUDIO
    TITLE "耶利亚女郎"
    PERFORMER ""
    INDEX 00 04:01:45
    INDEX 01 04:06:60
  TRACK 03 AUDIO
    TITLE "说声珍重"
    PERFORMER ""
    INDEX 00 08:04:50
    INDEX 01 08:10:13
  TRACK 04 AUDIO
    TITLE "让我一次爱个够"
    PERFORMER ""
    INDEX 00 13:55:30
    INDEX 01 13:59:43
  TRACK 05 AUDIO
    TITLE "她的背影"
    PERFORMER ""
    INDEX 00 17:21:50
    INDEX 01 17:24:63
  TRACK 06 AUDIO
    TITLE "惦记这一些"
    PERFORMER ""
    INDEX 00 21:57:65
    INDEX 01 22:01:45
  TRACK 07 AUDIO
    TITLE "血染的风采"
    PERFORMER ""
    INDEX 00 26:06:25
    INDEX 01 26:10:50
  TRACK 08 AUDIO
    TITLE "是否我真的一无所有"
    PERFORMER ""
    INDEX 00 29:34:28
    INDEX 01 29:40:13
  TRACK 09 AUDIO
    TITLE "故事的角色"
    PERFORMER ""
    INDEX 00 33:37:00
    INDEX 01 33:42:05
  TRACK 10 AUDIO
    TITLE "安妮"
    PERFORMER ""
    INDEX 00 38:10:13
    INDEX 01 38:17:53
  TRACK 11 AUDIO
    TITLE "你的样子"
    PERFORMER ""
    INDEX 00 42:35:73
    INDEX 01 42:39:63
  TRACK 12 AUDIO
    TITLE "一场游戏一场梦"
    PERFORMER ""
    INDEX 00 45:50:63
    INDEX 01 45:55:00
  TRACK 13 AUDIO
    TITLE "无言的结局"
    PERFORMER ""
    INDEX 00 49:33:55
    INDEX 01 49:38:65
  TRACK 14 AUDIO
    TITLE "结束"
    PERFORMER ""
    INDEX 00 53:10:23
    INDEX 01 53:14:63
  TRACK 15 AUDIO
    TITLE "一样的天空"
    PERFORMER ""
    INDEX 00 56:53:18
    INDEX 01 56:59:13
  TRACK 16 AUDIO
    TITLE "驿动的心"
    PERFORMER ""
    INDEX 00 60:59:63
    INDEX 01 61:04:38
 

回复:[17/10/2012][轻曲妙韵尽精英-国语专辑][原创][WAV/迅雷快传]

  谢谢saijia 朋友的国语精英专辑,不过现在的迅雷除非是付费帐号,否则速度已经慢到很难下载了  !
 

回复: [17/10/2012][轻曲妙韵尽精英-国语专辑][原创][WAV/迅雷快传]

的确为妙曲佳音,感谢楼主分享
雨人小屋
我的地盘我作主
 

回复:[17/10/2012][轻曲妙韵尽精英-国语专辑][原创][WAV/迅雷快传]

感谢老大无私的提供,真好听的碟。
 

回复:[17/10/2012][轻曲妙韵尽精英-国语专辑][原创][WAV/迅雷快传]

谢谢楼主分享快乐音乐专辑,谢谢了
 

回复:[17/10/2012][轻曲妙韵尽精英-国语专辑][原创][WAV/迅雷快传]

很美妙的音乐,感谢楼主分享。
 

回复:[17/10/2012][轻曲妙韵尽精英-国语专辑][原创][WAV/迅雷快传]

曲目不错,下来听听,上传辛苦了.
 

此帖未经审核!
 

回复:[17/10/2012][轻曲妙韵尽精英-国语专辑][原创][WAV/迅雷快传]

谢谢楼主分享轻曲妙韵尽精英-国语专辑!!!
 
1  /  8  页   12345678 跳转

Copyright @ 2004-2021 www.52jdyy.com  激动社区 - 陪你一起慢慢变老!

皖公网安备 34182502000053号  皖ICP备19010502号